VA – Motown: The Complete No. 1’s [10CD Box Set] (2008) CD Rip


Artist: Various Artists
Title: Motown: The Complete No. 1’s
Year Of Release: 2008-12-09
Label: Motown Records / Universal Music (USA)
Genre: R&B, Soul/Funk, Pop-Soul, Motown
Quality: FLAC (tracks+.cue+.log)
Total Time: 12:26:00
Total Size: 5,13 Gb (Full Scans~1,22 Gb)


Tracklist:

Disc 1

01. The Miracles feat. Bill ‘Smokey’ Robinson – Shop Around (02:49)
02. The Marvelettes – Please Mr. Postman (02:29)
03. The Contours – Do You Love Me (02:52)
04. Mary Wells – You Beat Me To The Punch (02:44)
05. Mary Wells – Two Lovers (02:46)
06. The Miracles – You’ve Really Got A Hold On Me (03:11)
07. Little Stevie Wonder – Fingertips (Part 2) (03:11)
08. Martha & The3.11 dB -9.81 dB 3:19 15-Shotgun
DR9 -0.70 dB -12.15 dB 3:11 07-Fingertips-Part 2
DR8 -0.90 dB -9.82 dB 3:04 08-Heat Wave
DR6 -1.86 dB -9.38 dB 2:39 24-Dancing In The Street
DR9 -0.18 dB -11.13 dB 2:47 17-I’ll Be Doggone
DR8 -1.15 dB -10.28 dB 2:59 21-Ain’t That Peculiar
DR10 -0.61 dB -11.78 dB 2:56 25-How Sweet It Is (To Be Loved By You)
DR11 0.00 dB -12.29 dB 2:21 27-Wherever I Lay My Hat (That’s My Home)
DR9 -0.10 dB -10.33 dB 2:45 04-You Beat Me To The Punch
DR8 -1.10 dB -9.99 dB 2:46 05-Two Lovers
DR10 0.00 dB -11.84 dB 2:52 10-My Guy
DR7 -0.70 dB -9.19 dB 2:53 22-Uptight (Everything’s Alright)
DR8 -2.00 dB -11.25 dB 2:53 03-Do You Love Me
DR8 0.00 dB -9.97 dB 2:45 19-I Can’t Help Myself
DR8 0.00 dB -9.47 dB 2:53 26-This Old Heart Of Mine (Is Weak For You)
DR7 -0.50 dB -8.89 dB 2:29 02-Please Mr. Postman
DR7 -0.10 dB -8.79 dB 2:49 01-Shop Around
DR10 -0.10 dB -12.21 dB 3:12 06-You’ve Really Got A Hold On Me
DR9 -0.34 dB -11.76 dB 2:32 11-Where Did Our Love Go
DR9 -0.28 dB -10.98 dB 2:37 12-Baby Love
DR10 -0.24 dB -11.88 dB 2:43 13-Come See About Me
DR8 0.00 dB -9.64 dB 2:52 16-Stop! In The Name Of Love
DR9 -0.23 dB -10.05 dB 2:54 18-Back In My Arms Again
DR10 0.00 dB -11.53 dB 2:44 20-I Hear A Symphony
DR6 -2.94 dB -10.40 dB 2:40 09-The Way You Do The Things You Do
DR9 -0.20 dB -10.82 dB 2:58 14-My Girl
DR5 -3.15 dB -9.45 dB 2:38 23-Get Ready
——————————————————————————–

Number of tracks: 27
Official DR13.62 dB 2:52 25-You’ve Made Me So Very Happy
DR6 -1.75 dB -10.92 dB 3:07 23-I’m Gonna Make You Love Me
DR9 -1.24 dB -12.48 dB 2:55 20-Love Child
DR9 -0.10 dB -11.13 dB 2:47 13-I Heard It Through The Grapevine
DR9 0.00 dB -9.90 dB 3:00 24-What Becomes Of The Brokenhearted
DR6 -1.03 dB -9.34 dB 2:53 10-Jimmy Mack
DR11 0.00 dB -12.69 dB 2:14 17-Ain’t Nothing Like The Real Thing
DR11 -0.40 dB -13.56 dB 2:49 19-You’re All I Need To Get By
DR8 -0.41 dB -10.40 dB 2:48 22-I Heard It Through The Grapevine
DR10 0.00 dB -11.55 dB 2:46 14-I Second That Emotion
DR8 -1.58 dB -11.46 dB 3:04 02-Blowin’ In The Wind
DR9 0.00 dB -10.26 dB 2:36 12-I Was Made To Love Her
DR7 -1.96 dB -10.19 dB 2:45 16-Shoo-Be-Doo-Be-Doo-Da-Day
DR11 0.00 dB -12.65 dB 3:14 21-For Once In My Life
DR7 -1.26 dB -9.51 dB 3:01 05-Reach Out I’ll Be There
DR12 0.00 dB -13.85 dB 2:51 08-The Hunter Gets Captured By The Game
DR7 -2.76 dB -10.98 dB 2:46 03-You Can’t Hurry Love
DR8 0.00 dB -9.87 dB 2:42 06-You Keep Me Hangin’ On
DR8 -0.60 dB -10.38 dB 2:47 09-Love Is Here And Now You’re Gone
DR8 -1.20 dB -10.04 dB 2:51 11-The Happening
DR7 -1.71 dB -10.10 dB 2:32 01-Ain’t Too Proud To Beg
DR5 -3.60 dB -10.06 dB 2:23 04-Beauty Is Only Skin Deep
DR7 -2.41 dB -10.91 dB 2:28 07-(I Know) I’m Losing You
DR8 -0.10 dB -10.21 dB 2:46 15-I Wish It Would Rain
DR7 -2.81 dB -11.06 dB 3:32 18-I Could Never Love Another (After Loving You)
——————————————————————————–

Number of tracks: 25
Official DR0.76 dB -10.89 dB 3:32 06-Someday We’ll Be Together
DR8 -0.10 dB -10.09 dB 3:04 10-Reach Out And Touch (Somebody’s Hand)
DR6 -1.19 dB -10.49 dB 3:35 18-Ain’t No Mountain High Enough
DR9 -0.10 dB -10.00 dB 3:23 16-War
DR9 -0.01 dB -11.20 dB 3:16 23-If I Were Your Woman
DR7 -3.02 dB -11.12 dB 2:27 03-What Does It Take (To Win Your Love)
DR11 -0.50 dB -13.78 dB 2:54 02-Too Busy Thinking About My Baby
DR10 0.00 dB -11.77 dB 2:51 13-Get Ready
DR9 -2.32 dB -12.10 dB 3:00 17-The Tears Of A Clown [U.K. version]
DR7 -2.00 dB -10.25 dB 3:04 21-The Tears Of A Clown [U.S. version]
DR7 -1.85 dB -9.34 dB 3:03 08-Yester-Me, Yester-You, Yesterday
DR6 -2.01 dB -9.62 dB 2:39 15-Signed, Sealed, Delivered I’m Yours
DR6 -1.37 dB -9.44 dB 3:12 20-Heaven Help Us All
DR10 -0.10 dB -12.34 dB 2:45 11-It’s All In The Game
DR7 -2.76 dB -11.20 dB 2:59 07-I Want You Back
DR7 -1.30 dB -9.73 dB 2:57 09-ABC
DR6 -1.87 dB -10.52 dB 3:03 12-The Love You Save
DR7 -0.77 dB -10.06 dB 3:56 19-I’ll Be There
DR8 -0.10 dB -10.62 dB 3:22 05-Baby I’m For Real
DR10 -0.02 dB -11.90 dB 4:07 22-Stoned Love
DR6 -3.51 dB -11.56 dB 4:46 01-Run Away Child, Running Wild
DR7 -1.30 dB -10.71 dB 2:52 04-I Can’t Get Next To You
DR7 -0.60 dB -8.87 dB 4:04 14-Ball Of Confusion (That’s What The World Is Today)
——————————————————————————–

Number of tracks: 23
Official DR13.11 dB 3:44 06-I’m Still Waiting
DR6 -1.00 dB -10.23 dB 3:49 18-Touch Me In The Morning
DR9 -0.10 dB -11.29 dB 4:22 15-Neither One Of Us (Wants To Be The First To Say Goodbye)
DR11 0.00 dB -12.12 dB 3:54 03-What’s Going On
DR11 0.00 dB -12.18 dB 3:14 05-Mercy Mercy Me (The Ecology)
DR10 -0.10 dB -12.02 dB 5:27 08-Inner City Blues (Make Me Wanna Holler)
DR10 -0.10 dB -11.08 dB 4:51 19-Let’s Get It On
DR10 -0.10 dB -11.69 dB 3:24 09-Got To Be There
DR10 -0.10 dB -11.02 dB 2:34 10-Rockin’ Robin
DR9 -0.10 dB -11.47 dB 2:59 11-I Wanna Be Where You Are
DR9 -0.10 dB -11.73 dB 2:46 12-Ben
DR8 -0.10 dB -9.77 dB 4:28 14-Superstition
DR10 -0.10 dB -11.58 dB 2:52 17-You Are The Sunshine Of My Life
DR6 -0.66 dB -8.62 dB 3:12 01-Mama’s Pearl
DR6 -0.73 dB -9.00 dB 3:00 04-Never Can Say Goodbye
DR8 -0.63 dB -10.73 dB 3:48 02-Just My Imagination (Running Away With Me)
DR10 -0.10 dB -12.45 dB 6:58 13-Papa Was A Rollin’ Stone
DR10 -0.10 dB -12.62 dB 4:23 16-Masterpiece
DR7 -1.08 dB -9.44 dB 3:16 07-Smiling Faces Sometimes
——————————————————————————–

Number of tracks: 19
Official DR0.52 dB -11.92 dB 5:30 17-Walk Away From Love
DR9 -0.40 dB -11.80 dB 2:48 06-Last Time I Saw Him
DR5 -3.30 dB -12.39 dB 3:24 18-Theme From Mahogany (Do You Know Where You’re Going To)
DR9 -0.10 dB -12.12 dB 3:33 02-Keep On Truckin’ (Part 1)
DR9 -1.57 dB -12.40 dB 3:50 05-Boogie Down
DR9 -2.22 dB -12.61 dB 3:17 12-Shoeshine Boy
DR8 -1.03 dB -10.53 dB 3:47 14-Baby That’s Backatcha
DR10 -0.10 dB -11.30 dB 3:44 01-Higher Ground
DR10 -0.10 dB -11.65 dB 7:25 03-Living For The City
DR10 0.00 dB -11.58 dB 3:24 09-You Haven’t Done Nothin’
DR10 -0.80 dB -12.57 dB 4:12 10-Boogie On Reggae Woman
DR11 -0.10 dB -13.74 dB 2:48 19-Devil In The Bottle
DR10 -0.10 dB -12.07 dB 2:42 20-Tryin’ To Beat The Morning Home
DR10 -0.98 dB -12.39 dB 3:20 15-Slippery When Wet
DR13 0.00 dB -14.74 dB 2:37 07-Dancing Machine
DR8 -0.34 dB -10.89 dB 6:22 16-Forever Came Today
DR12 -0.08 dB -13.37 dB 3:03 08-Do It Baby
DR11 0.00 dB -13.28 dB 2:40 04-Let Your Hair Down
DR11 -0.10 dB -11.88 dB 3:38 11-Happy People
DR11 -0.13 dB -12.59 dB 4:03 13-Shakey Ground
——————————————————————————–

Number of tracks: 20
Official DR2.67 dB -10.55 dB 3:45 02-Love Hangover
DR8 -2.36 dB -12.02 dB 3:51 15-The Boss
DR11 0.00 dB -13.74 dB 3:31 11-You Can’t Turn Me Off (In The Middle Of Turning Me On)
DR8 -0.10 dB -9.60 dB 3:55 03-I Want You
DR11 0.00 dB -12.67 dB 4:12 08-Got To Give It Up (Part 1)
DR11 0.00 dB -12.61 dB 3:11 13-You And I
DR9 -0.10 dB -10.51 dB 4:14 07-I Wish
DR9 -0.10 dB -10.98 dB 3:55 09-Sir Duke
DR11 -0.10 dB -12.57 dB 4:04 18-Send One Your Love
DR11 0.00 dB -12.86 dB 3:27 19-Pastime Paradise
DR8 -0.10 dB -10.46 dB 3:27 04-Just To Be Close To You
DR8 -0.10 dB -10.40 dB 4:20 10-Easy
DR11 0.00 dB -11.96 dB 3:30 12-Too Hot Ta Trot
DR13 0.00 dB -17.36 dB 3:38 14-Three Times A Lady
DR11 0.00 dB -14.36 dB 3:54 16-Sail On
DR9 -0.48 dB -12.60 dB 3:44 17-Still
DR9 -0.10 dB -11.12 dB 3:00 01-Love Machine (Part 1)
DR10 -0.10 dB -12.98 dB 5:55 05-Down To Love Town
DR8 -1.20 dB -11.24 dB 5:42 06-Don’t Leave Me This Way
——————————————————————————–

Number of tracks: 19
Official DR0.10 dB -10.35 dB 3:54 14-I’ve Never Been To Me
DR9 -0.10 dB -11.43 dB 4:07 13-Let It Whip
DR7 -0.10 dB -9.85 dB 4:28 10-Endless Love
DR9 -0.50 dB -11.35 dB 5:20 03-I’m Coming Out
DR9 -1.00 dB -11.51 dB 4:05 04-Upside Down
DR9 -1.10 dB -11.77 dB 3:36 02-Let’s Get Serious
DR9 -0.10 dB -11.72 dB 4:13 09-One Day In Your Life
DR9 -1.00 dB -10.75 dB 4:09 07-Give It To Me Baby
DR8 -1.00 dB -9.96 dB 3:27 08-Super Freak
DR9 -0.10 dB -11.30 dB 4:29 01-Cruisin’
DR9 0.00 dB -10.46 dB 4:00 06-Beling With You
DR10 -0.10 dB -11.46 dB 5:10 05-Master Blaster (Jammin’)
DR9 -0.40 dB -10.98 dB 5:14 12-That Girl
DR9 -0.10 dB -10.63 dB 10:30 15-Do I Do
DR9 -0.10 dB -12.79 dB 4:07 16-Lately
DR8 -0.70 dB -10.58 dB 4:02 11-Lady (You Bring Me Up)
——————————————————————————–

Number of tracks: 16
Official DR0.10 dB -10.54 dB 4:11 04-All This Love
DR8 -1.10 dB -11.98 dB 4:15 07-Time Will Reveal
DR9 -0.10 dB -10.51 dB 3:55 15-Rhythm Of The Night
DR10 -1.10 dB -12.95 dB 4:03 18-Don’t Look Any Further
DR11 -0.40 dB -12.62 dB 3:56 17-You Wear It Well
DR8 0.00 dB -12.24 dB 3:19 01-Truly
DR10 0.00 dB -12.92 dB 4:06 02-You Are
DR9 -0.45 dB -13.47 dB 4:06 03-My Love
DR9 -0.40 dB -12.08 dB 4:19 06-All Night Long (All Night)
DR10 -0.10 dB -13.33 dB 4:08 09-Hello
DR11 -0.10 dB -14.51 dB 3:11 10-Stuck On You
DR10 -1.10 dB -12.54 dB 3:47 12-Penny Lover
DR11 -1.10 dB -13.57 dB 4:29 05-Cold Blooded
DR9 -1.40 dB -12.27 dB 4:30 16-Glow
DR10 -0.10 dB -11.43 dB 3:57 08-Somebody’s Watching Me
DR9 -0.10 dB -10.85 dB 4:23 11-I Just Called To Say I Love You
DR11 -0.24 dB -13.75 dB 4:21 13-Nightshift
DR10 -0.10 dB -11.35 dB 3:57 14-In My House
——————————————————————————–

Number of tracks: 18
Official DR1.81 dB -9.76 dB 4:09 06-Who’s Johnny
DR12 -0.70 dB -13.69 dB 5:08 11-Tina Cherry
DR10 -0.40 dB -11.73 dB 3:33 18-Dreamin’
DR9 -0.10 dB -11.84 dB 4:03 02-Say You, Say Me
DR9 -0.10 dB -10.60 dB 4:35 07-Dancing On The Ceiling
DR9 -0.10 dB -11.51 dB 4:17 08-Love Will Conquer All
DR10 -0.10 dB -12.79 dB 3:38 09-Ballerina Girl
DR10 0.00 dB -13.04 dB 4:02 10-Just To See Her
DR10 -0.70 dB -12.29 dB 4:16 17-Where Do We Go From Here
DR9 -0.10 dB -10.30 dB 4:14 01-Part-Time Lover
DR9 -1.10 dB -11.15 dB 4:10 03-Go Home
DR10 -0.10 dB -11.97 dB 3:43 05-Overjoyed
DR10 -0.10 dB -11.91 dB 5:27 12-Skeletons
DR9 -0.10 dB -11.87 dB 5:02 13-You Will Know
DR12 0.00 dB -12.84 dB 4:22 14-Dial My Heart
DR12 -0.10 dB -13.26 dB 3:57 15-Lucky Charm
DR13 -0.10 dB -14.41 dB 4:59 16-Girl I Got My Eyes On You
DR10 -0.60 dB -11.32 dB 4:16 04-If You Should Ever Be Lonely
——————————————————————————–

Number of tracks: 18
Official DR11.76 dB 3:10 05-It’s So Hard To Say Goodbye To Yesterday
DR9 -1.20 dB -12.11 dB 3:50 07-Uhh Ahh
DR10 -0.11 dB -12.03 dB 5:50 09-End Of The Road
DR9 -1.03 dB -12.21 dB 3:56 10-I’ll Make Love To You
DR9 -0.50 dB -11.41 dB 5:32 11-On Bended Knee
DR8 -1.70 dB -12.46 dB 4:55 13-4 Seasons Of Loneliness
DR9 -2.11 dB -12.75 dB 5:04 14-A Song For Mama
DR10 0.00 dB -11.51 dB 4:19 12-Take Me Higher
DR7 -1.81 dB -10.44 dB 4:06 17-Bag Lady
DR11 -0.24 dB -12.06 dB 4:15 01-Rub You The Right Way
DR9 -0.10 dB -10.71 dB 4:06 02-My, My, My
DR9 -0.10 dB -10.09 dB 3:45 04-Wrap My Body Tight
DR11 0.00 dB -12.47 dB 4:32 08-Do It To Me
DR6 -0.10 dB -7.95 dB 4:00 16-Liar
DR9 -0.50 dB -11.52 dB 4:25 06-I Love Your Smile
DR8 -1.10 dB -10.67 dB 4:04 03-Crazy
DR9 -0.71 dB -10.95 dB 4:47 15-Stay

DOWNLOAD

rapidgator

https://rapidgator.net/file/3abf30222083b53757e4eee38a41d857/7gbsQL0j__AVNO08F.part1.rar.html
https://rapidgator.net/file/92219322bd905c500e39135e54310e37/7gbsQL0j__AVNO08F.part2.rar.html

Leave a Reply

Your email address will not be published. Required fields are marked *